osu file format v14

[General]
AudioFilename: Kimi to Deaeru Hi.mp3
AudioLeadIn: 2250
PreviewTime: 49951
Countdown: 0
SampleSet: Normal
StackLeniency: 0.7
Mode: 1
LetterboxInBreaks: 0
WidescreenStoryboard: 0

[Editor]
DistanceSpacing: 0.1
BeatDivisor: 4
GridSize: 32
TimelineZoom: 1

[Metadata]
Title:Prime number ~Kimi to Deaeru Hi~ (TV Size)
TitleUnicode:Prime number~君と出会える日~ (TV Size)
Artist:Okura Asuka
ArtistUnicode:大倉明日香
Creator:Flask
Version:Taiko Muzukashii
Source:Sakurasou no Pet na Kanojo
Tags:ending ed2 Sorata Kanda Mashiro Shiina Nanami Aoyama Misaki Kamiigusa Jin Mitaka Ryunosuke Akasaka Meido Maid J.C.STAFF No_Gu Black_Cherry_Ita BCI Flower
BeatmapID:236781
BeatmapSetID:81556

[Difficulty]
HPDrainRate:5
CircleSize:5
OverallDifficulty:5
ApproachRate:5
SliderMultiplier:1.4
SliderTickRate:2

[Events]
//Background and Video events
0,0,"mashiro.jpg",0,-100
Video,288,"Video.flv",0,0
//Break Periods
//Storyboard Layer 0 (Background)
//Storyboard Layer 1 (Fail)
//Storyboard Layer 2 (Pass)
//Storyboard Layer 3 (Foreground)
//Storyboard Sound Samples
//Background Colour Transformations
3,100,163,162,255

[TimingPoints]
315,434.782608695652,4,1,0,80,1,0
50532,-100,4,1,0,80,0,1
71619,-100,4,1,0,80,0,0

[Colours]
Combo1 : 114,0,227
Combo2 : 255,143,89
Combo3 : 204,102,0
Combo4 : 255,255,125
Combo5 : 255,36,36
Combo6 : 0,134,198
Combo7 : 255,45,255

[HitObjects]
256,192,315,1,8,0:0:0:0:
256,192,749,1,0,0:0:0:0:
256,192,1184,1,8,0:0:0:0:
256,192,1619,1,0,0:0:0:0:
256,192,1728,1,0,0:0:0:0:
256,192,1836,1,0,0:0:0:0:
256,192,2054,1,4,0:0:0:0:
256,192,2271,1,0,0:0:0:0:
256,192,2488,1,8,0:0:0:0:
256,192,2706,1,0,0:0:0:0:
256,192,3141,1,0,0:0:0:0:
256,192,3358,1,8,0:0:0:0:
256,192,3793,1,0,0:0:0:0:
256,192,4010,1,0,0:0:0:0:
256,192,4228,1,8,0:0:0:0:
256,192,4445,1,0,0:0:0:0:
256,192,4880,1,8,0:0:0:0:
256,192,5097,1,8,0:0:0:0:
256,192,5532,1,0,0:0:0:0:
256,192,5749,1,0,0:0:0:0:
256,192,5967,1,8,0:0:0:0:
256,192,6184,1,0,0:0:0:0:
256,192,6619,1,0,0:0:0:0:
256,192,6836,1,8,0:0:0:0:
256,192,7271,1,0,0:0:0:0:
256,192,7488,1,0,0:0:0:0:
256,192,7706,1,8,0:0:0:0:
320,256,7923,1,0,0:0:0:0:
256,192,8358,1,8,0:0:0:0:
256,192,8575,1,8,0:0:0:0:
256,192,9010,1,4,0:0:0:0:
256,192,9228,1,0,0:0:0:0:
256,192,9445,1,8,0:0:0:0:
256,192,9662,1,0,0:0:0:0:
256,192,10097,1,0,0:0:0:0:
256,192,10314,1,8,0:0:0:0:
256,192,10749,1,0,0:0:0:0:
256,192,10967,1,0,0:0:0:0:
256,192,11184,1,8,0:0:0:0:
256,192,11401,1,0,0:0:0:0:
256,192,11836,1,8,0:0:0:0:
256,192,12054,1,12,0:0:0:0:
256,192,12488,1,4,0:0:0:0:
256,192,12923,1,8,0:0:0:0:
256,192,13141,1,8,0:0:0:0:
256,192,13358,1,0,0:0:0:0:
256,192,13793,1,8,0:0:0:0:
256,192,14010,1,8,0:0:0:0:
256,192,14228,1,0,0:0:0:0:
256,192,14662,1,8,0:0:0:0:
256,192,14880,1,8,0:0:0:0:
256,192,15097,1,0,0:0:0:0:
256,192,15314,1,8,0:0:0:0:
256,192,15532,1,8,0:0:0:0:
256,192,15967,1,0,0:0:0:0:
256,192,16401,1,8,0:0:0:0:
256,192,16619,1,8,0:0:0:0:
256,192,16836,1,0,0:0:0:0:
256,192,17271,1,8,0:0:0:0:
256,192,17488,1,8,0:0:0:0:
256,192,17706,1,0,0:0:0:0:
256,192,17923,1,0,0:0:0:0:
256,192,18141,1,8,0:0:0:0:
256,192,18358,1,8,0:0:0:0:
256,192,18575,1,0,0:0:0:0:
256,192,19010,1,8,0:0:0:0:
256,192,19445,1,0,0:0:0:0:
256,192,19880,1,8,0:0:0:0:
256,192,20314,1,0,0:0:0:0:
256,192,20532,1,0,0:0:0:0:
256,192,20749,1,8,0:0:0:0:
256,192,21184,1,0,0:0:0:0:
256,192,21401,1,0,0:0:0:0:
256,192,21619,1,8,0:0:0:0:
256,192,21836,1,0,0:0:0:0:
256,192,22271,1,0,0:0:0:0:
256,192,22488,1,8,0:0:0:0:
256,192,22923,1,4,0:0:0:0:
256,192,23358,1,8,0:0:0:0:
256,192,23575,1,8,0:0:0:0:
256,192,23793,1,0,0:0:0:0:
256,192,24228,1,8,0:0:0:0:
256,192,24445,1,0,0:0:0:0:
256,192,24662,1,0,0:0:0:0:
256,192,24880,1,8,0:0:0:0:
256,192,25097,1,0,0:0:0:0:
256,192,25314,1,8,0:0:0:0:
256,192,25532,1,0,0:0:0:0:
256,192,25967,1,8,0:0:0:0:
256,192,26184,1,0,0:0:0:0:
256,192,26401,1,0,0:0:0:0:
256,192,26836,1,8,0:0:0:0:
256,192,27054,1,8,0:0:0:0:
256,192,27271,1,0,0:0:0:0:
256,192,27706,1,8,0:0:0:0:
256,192,27923,1,0,0:0:0:0:
256,192,28141,1,0,0:0:0:0:
256,192,28358,1,8,0:0:0:0:
256,192,28575,1,0,0:0:0:0:
256,192,28793,1,8,0:0:0:0:
256,192,29010,1,0,0:0:0:0:
256,192,29445,1,8,0:0:0:0:
256,192,29880,1,0,0:0:0:0:
256,192,30314,1,8,0:0:0:0:
256,192,30749,1,0,0:0:0:0:
256,192,30967,1,0,0:0:0:0:
256,192,31184,1,8,0:0:0:0:
256,192,31401,1,0,0:0:0:0:
256,192,31836,1,0,0:0:0:0:
256,192,32054,1,8,0:0:0:0:
256,192,32271,1,8,0:0:0:0:
256,192,32706,1,0,0:0:0:0:
256,192,32923,1,8,0:0:0:0:
256,192,33141,1,0,0:0:0:0:
256,192,33358,1,0,0:0:0:0:
256,192,33793,1,8,0:0:0:0:
256,192,34228,1,0,0:0:0:0:
256,192,34445,1,0,0:0:0:0:
256,192,34662,1,8,0:0:0:0:
256,192,34880,1,0,0:0:0:0:
256,192,35314,1,0,0:0:0:0:
256,192,35532,1,8,0:0:0:0:
256,192,35749,1,8,0:0:0:0:
256,192,36184,1,0,0:0:0:0:
256,192,36401,1,8,0:0:0:0:
256,192,36836,1,4,0:0:0:0:
256,192,37271,1,8,0:0:0:0:
256,192,37488,1,0,0:0:0:0:
256,192,37706,1,0,0:0:0:0:
256,192,37923,1,8,0:0:0:0:
256,192,38141,1,8,0:0:0:0:
256,192,38358,1,0,0:0:0:0:
256,192,38575,1,0,0:0:0:0:
256,192,39010,1,8,0:0:0:0:
256,192,39228,1,0,0:0:0:0:
256,192,39445,1,8,0:0:0:0:
256,192,39662,1,8,0:0:0:0:
256,192,39880,1,0,0:0:0:0:
256,192,40097,1,8,0:0:0:0:
256,192,40314,1,0,0:0:0:0:
256,192,40749,1,8,0:0:0:0:
256,192,40967,1,0,0:0:0:0:
256,192,41184,1,0,0:0:0:0:
256,192,41401,1,0,0:0:0:0:
256,192,41619,1,8,0:0:0:0:
256,192,41836,1,0,0:0:0:0:
256,192,42271,1,8,0:0:0:0:
256,192,42488,1,0,0:0:0:0:
256,192,42706,1,0,0:0:0:0:
256,192,43141,1,0,0:0:0:0:
256,192,43358,1,8,0:0:0:0:
256,192,43575,1,8,0:0:0:0:
256,192,43793,1,4,0:0:0:0:
256,192,44228,1,8,0:0:0:0:
256,192,44445,1,0,0:0:0:0:
256,192,44662,1,0,0:0:0:0:
256,192,45097,1,8,0:0:0:0:
256,192,45314,1,0,0:0:0:0:
256,192,45532,1,0,0:0:0:0:
256,192,45967,1,8,0:0:0:0:
256,192,46184,1,0,0:0:0:0:
256,192,46401,1,8,0:0:0:0:
256,192,46619,1,8,0:0:0:0:
256,192,46836,1,0,0:0:0:0:
256,192,47054,1,8,0:0:0:0:
256,192,47488,1,0,0:0:0:0:
256,192,47706,1,8,0:0:0:0:
256,192,47923,1,0,0:0:0:0:
256,192,48141,1,0,0:0:0:0:
256,192,48358,1,8,0:0:0:0:
256,192,48575,1,0,0:0:0:0:
256,192,48793,1,8,0:0:0:0:
256,192,49228,1,0,0:0:0:0:
256,192,49445,1,8,0:0:0:0:
224,192,50097,1,0,0:0:0:0:
224,192,50314,1,8,0:0:0:0:
224,192,50532,1,4,0:0:0:0:
224,192,50967,1,8,0:0:0:0:
224,192,51184,1,0,0:0:0:0:
224,192,51401,1,8,0:0:0:0:
224,192,51836,1,0,0:0:0:0:
224,192,52054,1,0,0:0:0:0:
224,192,52271,1,8,0:0:0:0:
224,192,52706,1,0,0:0:0:0:
224,192,52923,1,0,0:0:0:0:
224,192,53141,1,8,0:0:0:0:
224,192,53358,1,0,0:0:0:0:
224,192,53575,1,0,0:0:0:0:
224,192,53793,1,8,0:0:0:0:
224,192,54010,1,0,0:0:0:0:
224,192,54228,1,0,0:0:0:0:
224,192,54662,1,8,0:0:0:0:
224,192,54880,1,0,0:0:0:0:
224,192,55097,1,8,0:0:0:0:
224,192,55314,1,0,0:0:0:0:
224,192,55532,1,0,0:0:0:0:
224,192,55749,1,8,0:0:0:0:
224,192,55967,1,0,0:0:0:0:
224,192,56401,1,8,0:0:0:0:
224,192,56619,1,0,0:0:0:0:
224,192,57054,1,0,0:0:0:0:
224,192,57271,1,8,0:0:0:0:
224,192,57706,1,4,0:0:0:0:
224,192,58141,1,0,0:0:0:0:
224,192,58358,1,0,0:0:0:0:
224,192,58575,1,8,0:0:0:0:
224,192,59010,1,0,0:0:0:0:
224,192,59228,1,8,0:0:0:0:
224,192,59445,1,0,0:0:0:0:
224,192,59880,1,8,0:0:0:0:
224,192,60097,1,0,0:0:0:0:
224,192,60314,1,0,0:0:0:0:
224,192,60749,1,8,0:0:0:0:
224,192,60967,1,0,0:0:0:0:
224,192,61184,1,4,0:0:0:0:
224,192,61401,1,0,0:0:0:0:
224,192,61619,1,8,0:0:0:0:
224,192,61836,1,0,0:0:0:0:
224,192,62054,1,0,0:0:0:0:
224,192,62488,1,0,0:0:0:0:
224,192,62706,1,8,0:0:0:0:
224,192,63141,1,8,0:0:0:0:
224,192,63358,1,8,0:0:0:0:
224,192,63575,1,0,0:0:0:0:
224,192,63684,1,0,0:0:0:0:
224,192,63793,1,0,0:0:0:0:
192,192,64010,1,0,0:0:0:0:
192,192,64228,1,8,0:0:0:0:
192,192,64445,1,4,0:0:0:0:
224,192,64880,1,8,0:0:0:0:
224,192,65097,1,0,0:0:0:0:
224,192,65314,1,8,0:0:0:0:
224,192,65749,1,0,0:0:0:0:
224,192,65967,1,0,0:0:0:0:
224,192,66184,1,8,0:0:0:0:
224,192,66619,1,0,0:0:0:0:
224,192,66836,1,0,0:0:0:0:
224,192,67054,1,8,0:0:0:0:
224,192,67271,1,0,0:0:0:0:
224,192,67488,1,0,0:0:0:0:
224,192,67706,1,8,0:0:0:0:
224,192,67923,1,0,0:0:0:0:
224,192,68141,1,0,0:0:0:0:
224,192,68575,1,8,0:0:0:0:
224,192,68793,1,0,0:0:0:0:
224,192,69010,1,8,0:0:0:0:
224,192,69228,1,0,0:0:0:0:
224,192,69445,1,0,0:0:0:0:
224,192,69662,1,8,0:0:0:0:
224,192,69880,1,0,0:0:0:0:
224,192,70097,1,0,0:0:0:0:
224,192,70314,1,8,0:0:0:0:
224,192,70532,1,0,0:0:0:0:
224,192,70967,1,0,0:0:0:0:
224,192,71184,1,8,0:0:0:0:
224,192,71619,5,0,0:0:0:0:
224,192,72054,1,8,0:0:0:0:
224,192,72271,1,0,0:0:0:0:
224,192,72488,1,0,0:0:0:0:
224,192,72923,1,8,0:0:0:0:
224,192,73141,1,0,0:0:0:0:
224,192,73358,1,0,0:0:0:0:
224,192,73793,1,8,0:0:0:0:
224,192,74010,1,0,0:0:0:0:
224,192,74228,1,0,0:0:0:0:
224,192,74445,1,0,0:0:0:0:
224,192,74662,1,8,0:0:0:0:
224,192,74880,1,0,0:0:0:0:
224,192,75097,2,0,L|-32:64,1,280,,,0:0:0:0:
224,192,76401,1,0,0:0:0:0:
224,192,76619,1,4,0:0:0:0:
224,192,77054,1,0,0:0:0:0:
224,192,77271,1,0,0:0:0:0:
224,192,77488,1,0,0:0:0:0:
224,192,77706,1,0,0:0:0:0:
224,192,77923,1,12,0:0:0:0:
256,192,78575,12,0,83793,0:0:0:0:
